Login
Username:
Password:
[Signup]
[Recover Account]


Browse Torrents

Poll


You must be logged in to view polls



Latest Torrents
The.Pioneer.Woman....
- [Size: 174.36 MB]

James Bond (2015) ...
- [Size: 974.63 MB]

Adam.Newman.Fuzzie...
- [Size: 365.78 MB]

Fantastic.Beasts.T...
- [Size: 1.68 GB]

Bumblebee 2018 720...
- [Size: 2.44 GB]


Torrent Details For "Mission Impossible Fallout (2018) IMAX 720p x264 {Hindi+Eng Org BD 5.1} FIRST ON NET Exclusive ..."

Mission Impossible Fallout (2018) IMAX 720p x264 {Hindi+Eng Org BD 5.1} FIRST ON NET Exclusive ...

Download this torrent | Magnet Download
Health:
Seeds: 68
Leechers: 96
Completed: 234 
Last Checked: 01-12-2018 08:27:50
External Torrent
Update Stats



Images Host

Poster


iMDB
Imdb Picture Title: Mission: Impossible - Fallout
Year: 2018
Runtime: 147 minutes
Votes: 5275
Rating: 8.9/10
Language: English, French
Country: USA
All Genres: Action, Adventure, Thriller
Plot Outline: Ethan Hunt and his IMF team, along with some familiar allies, race against time after a mission gone wrong.


Tagline: Some missions are not a choice.
Director: Christopher McQuarrie
Writing By: Christopher McQuarrie,Bruce Geller,
Produced By: J.J. Abrams,Raphaƫl Benoliel,Per Henry Borch,Tom Cruise,David Ellison,Dana Goldberg,Tommy Gormley,Don Granger,Christopher McQuarrie,Jake Myers,
Music: Lorne Balfe
Cast:
Tom Cruise as Ethan Hunt
Henry Cavill as August Walker
Ving Rhames as Luther Stickell
Simon Pegg as Benji Dunn
Rebecca Ferguson as Ilsa Faust
Sean Harris as Solomon Lane
Angela Bassett as Erica Sloan
Vanessa Kirby as White Widow
Michelle Monaghan as Julia Meade-Hunt
Wes Bentley as Patrick
Trailers:
Official Trailer #2
Official Trailer


Watch-Free-HD     Download

Details
Name:Mission Impossible Fallout (2018) IMAX 720p x264 {Hindi+Eng Org BD 5.1} FIRST ON NET Exclusive ...
Description:
Mission Impossible Fallout (2018) IMAX 720p x264  x264 {Hindi Original BD 5.1~Eng BD 5.1} FIRST_ON_NET_Exclusive By~Hammer~

 

 
 
 
 

 


Format                                   : Matroska
Format version                           : Version 4 / Version 2
File size                                : 2.50 GiB
Duration                                 : 2 h 27 min
Overall bit rate                         : 2 425 kb/s
Movie name                               : Mission Impossible Fallout (2018) IMAX 720p x264  x264 {Hindi Original BD 5.1~Eng BD 5.1} FIRST_ON_NET_Exclusive By~Hammer~
Bit rate                                 : 1 500 kb/s
Width                                    : 1 280 pixels
Height                                   : 674 pixels
Display aspect ratio                     : 1.899
Frame rate mode                          : Constant
Frame rate                               : 23.976 (24000/1001) FPS
Title                                    : ~EncodeR~Hammer~
Language                                 : English
Default                                  : Yes
Forced                                   : No

Audio #1
Format                                   : AC-3
Format/Info                              : Audio Coding 3
Codec ID                                 : A_AC3
Duration                                 : 2 h 27 min
Bit rate mode                            : Constant
Bit rate                                 : 640 kb/s
Channel(s)                               : 6 channels
Channel positions                        : Front: L C R, Side: L R, LFE
Sampling rate                            : 48.0 kHz
Frame rate                               : 31.250 FPS (1536 SPF)
Bit depth                                : 16 bits
Compression mode                         : Lossy
Stream size                              : 675 MiB (26%)
Title                                    : Hindi Org BD 5.1 640 kbps By~Hammer~
Language                                 : Hindi
Default                                  : Yes
Forced                                   : No

Audio #2
Format                                   : AC-3
Format/Info                              : Audio Coding 3
Codec ID                                 : A_AC3
Duration                                 : 2 h 27 min
Bit rate mode                            : Constant
Bit rate                                 : 224 kb/s
Channel(s)                               : 6 channels
Channel positions                        : Front: L C R, Side: L R, LFE
Sampling rate                            : 48.0 kHz
Frame rate                               : 31.250 FPS (1536 SPF)
Bit depth                                : 16 bits
Compression mode                         : Lossy
Stream size                              : 236 MiB (9%)
Title                                    : Eng Org BD 5.1 224 kbps By~Hammer~
Language                                 : English
Default                                  : No
Forced                                   : No

Text #1
Format                                   : PGS
Muxing mode                              : zlib
Codec ID                                 : S_HDMV/PGS
Codec ID/Info                            : Picture based subtitle format used on BDs/HD-DVDs
Duration                                 : 2 h 26 min
Bit rate                                 : 8 503 b/s
Count of elements                        : 3163
Stream size                              : 8.92 MiB (0%)
Title                                    : Hindi PGS
Language                                 : Hindi
Default                                  : Yes
Forced                                   : No

Text #2
Format                                   : PGS
Muxing mode                              : zlib
Codec ID                                 : S_HDMV/PGS
Codec ID/Info                            : Picture based subtitle format used on BDs/HD-DVDs
Duration                                 : 2 h 19 min
Bit rate                                 : 9 026 b/s
Count of elements                        : 3111
Stream size                              : 8.99 MiB (0%)
Language                                 : Chinese
Default                                  : No
Forced                                   : No

Text #3
Format                                   : PGS
Muxing mode                              : zlib
Codec ID                                 : S_HDMV/PGS
Codec ID/Info                            : Picture based subtitle format used on BDs/HD-DVDs
Duration                                 : 2 h 19 min
Bit rate                                 : 11.0 kb/s
Count of elements                        : 3747
Stream size                              : 10.9 MiB (0%)
Language                                 : English
Default                                  : No
Forced                                   : No

Text #4
Format                                   : PGS
Muxing mode                              : zlib
Codec ID                                 : S_HDMV/PGS
Codec ID/Info                            : Picture based subtitle format used on BDs/HD-DVDs
Duration                                 : 2 h 25 min
Bit rate                                 : 22.8 kb/s
Count of elements                        : 6544
Stream size                              : 23.8 MiB (1%)
Language                                 : English
Default                                  : No
Forced                                   : No

Text #5
Format                                   : PGS
Muxing mode                              : zlib
Codec ID                                 : S_HDMV/PGS
Codec ID/Info                            : Picture based subtitle format used on BDs/HD-DVDs
Duration                                 : 2 h 21 min
Bit rate                                 : 12.0 kb/s
Count of elements                        : 3662
Stream size                              : 12.1 MiB (0%)
Language                                 : English
Default                                  : No
Forced                                   : No

 
 
 
 
 
 
 
 

 
 
Category:Movies > Hollywood Dub
Lang:Hindi
Total Size:2.52 GB
Info Hash:e08d1664a51d3f48574b71e071b88336040b29bb
Added By:Download
Date Added:29-11-2018 15:51:07
Downloads:848

Ratings:Not Yet Rated (Log in to rate it)


Tracker:
udp://tracker.coppersurfer.tk:6969/announce


File List: 


Comments

<< Previous      Next >>
1 - 2

[Report] Posted: 29-11-2018 at 15:53:48
Butt
Team DownloadHD


Happy Bithday Hammer Bhai

[Report] Posted: 30-11-2018 at 06:53:13
wiki



ThanksALOT BRO VGood WORk :love

1 - 2
<< Previous      Next >>


Top
Copyright 2018 DownloadHD -|- Page Generated In 2.149696 secs.
-|- RSS Feed -|- Feed Info