Login
Username:
Password:
[Signup]
[Recover Account]


Browse Torrents

Poll


You must be logged in to view polls



Latest Torrents
Clique.S02E06.720p...
- [Size: 961.12 MB]

Fantastic Beasts T...
- [Size: 4.49 GB]

Bumblebee 2018 720...
- [Size: 2.44 GB]

Fantastic.Beasts.T...
- [Size: 1.68 GB]

The.House.with.a.C...
- [Size: 711.15 MB]


Torrent Details For "Dumplin.2018.1080p.NF.WEBRip.DDP5.1.x264-CM"

Dumplin.2018.1080p.NF.WEBRip.DDP5.1.x264-CM

Download this torrent | Magnet Download
Health:
Seeds: 1,958
Leechers: 1,424
Completed: 13,768 
Last Checked: 07-12-2018 20:55:25
External Torrent
Update Stats



Images Host

Poster


iMDB
Title: Dumplin'
Year: 2018
Language: English
Tagline: Find out who you are and do it on purpose.
Director: Anne Fletcher
Writing By: Kristin Hahn,Julie Murphy,
Produced By: Mohamed AlRafi,Jennifer Aniston,Michael Costigan,Kristin Hahn,Trish Hofmann,Danny Nozell,Kelly Todd,Christopher Tricarico,
Music: Jake Monaco
Cast:
Danielle Macdonald as Willowdean
Jennifer Aniston as Rosie
Odeya Rush as Ellen
Maddie Baillio as Millie
Bex Taylor-Klaus as Hannah
Luke Benward as Bo
Georgie Flores as Callie
Dove Cameron as Bekah
Harold Perrineau as Lee
Kathy Najimy as Millie's Mom
Trailers:
Official Trailer


Watch-Free-HD     Download

Details
Name:Dumplin.2018.1080p.NF.WEBRip.DDP5.1.x264-CM
Description:
Video
ID : 1
Format : AVC
Format/Info : Advanced Video Codec
Format profile : [email protected]
Format settings : CABAC / 3 Ref Frames
Format settings, CABAC : Yes
Format settings, ReFrames : 3 frames
Codec ID : V_MPEG4/ISO/AVC
Duration : 1 h 50 min
Bit rate mode : Variable
Bit rate : 5 110 kb/s
Maximum bit rate : 7 665 kb/s
Width : 1 920 pixels
Height : 1 080 pixels
Display aspect ratio : 16:9
Frame rate mode : Constant
Frame rate : 23.976 (24000/1001) FPS
Color space : YUV
Chroma subsampling : 4:2:0
Bit depth : 8 bits
Scan type : Progressive
Bits/(Pixel*Frame) : 0.103
Stream size : 3.92 GiB (89%)
Writing library : x264 core 148 r2715 7e75228
Encoding settings : cabac=1 / ref=3 / deblock=1:0:0 / analyse=0x1:0x111 / me=umh / subme=10 / psy=1 / psy_rd=1.00:0.00 / mixed_ref=1 / me_range=24 / chroma_me=1 / trellis=2 / 8x8dct=0 / cqm=0 / deadzone=21,11 / fast_pskip=1 / chroma_qp_offset=-2 / threads=8 / lookahead_threads=1 / sliced_threads=0 / nr=0 / decimate=1 / interlaced=0 / bluray_compat=0 / stitchable=1 / constrained_intra=0 / bframes=2 / b_pyramid=0 / b_adapt=2 / b_bias=0 / direct=3 / weightb=1 / open_gop=0 / weightp=2 / keyint=48 / keyint_min=25 / scenecut=0 / intra_refresh=0 / rc_lookahead=48 / rc=2pass / mbtree=1 / bitrate=5110 / ratetol=1.0 / qcomp=0.50 / qpmin=6 / qpmax=51 / qpstep=4 / cplxblur=20.0 / qblur=0.5 / vbv_maxrate=7665 / vbv_bufsize=10220 / nal_hrd=vbr / filler=0 / ip_ratio=1.40 / aq=1:1.00
Language : English
Default : Yes
Forced : No

Audio
ID : 2
Format : E-AC-3
Format/Info : Enhanced AC-3
Commercial name : Dolby Digital Plus
Codec ID : A_EAC3
Duration : 1 h 50 min
Bit rate mode : Constant
Bit rate : 640 kb/s
Channel(s) : 6 channels
Channel layout : L R C LFE Ls Rs
Sampling rate : 48.0 kHz
Frame rate : 31.250 FPS (1536 SPF)
Compression mode : Lossy
Stream size : 505 MiB (11%)
Language : English
Service kind : Complete Main
Default : Yes
Forced : No


 http://imagecurl.com/viewer.p...7866516380274974.png


 http://imagecurl.com/viewer.p...7104140688531585.png

 http://imagecurl.com/viewer.p...3973626.png[/center]
Category:Movies > WEB-HD
Lang:English  English
Total Size:4.42 GB
Info Hash:1962c2dec4790492dfdf86b19e684d6b8e2af3b5
Added By:Scene
Date Added:07-12-2018 10:36:33
Downloads:28

Ratings:Not Yet Rated (Log in to rate it)


Tracker:
http://tracker.trackerfix.com:80/announce


File List: 


Comments

No comments still posted

Top
Copyright 2018 DownloadHD -|- Page Generated In 0.072132 secs.
-|- RSS Feed -|- Feed Info