Login
Username:
Password:
[Signup]
[Recover Account]


Browse Torrents

Poll


You must be logged in to view polls



Latest Torrents
Fantastic.Beasts.T...
- [Size: 1.68 GB]

Bumblebee 2018 720...
- [Size: 2.44 GB]

Badhaai Ho 2018 Hi...
- [Size: 1.71 GB]

Clique.S02E06.720p...
- [Size: 961.12 MB]

Fantastic Beasts T...
- [Size: 4.49 GB]


Torrent Details For "Mowgli.Legend.of.the.Jungle.2018.1080p.NF.WEBRip.DDP5.1.x264-NTG"

Mowgli.Legend.of.the.Jungle.2018.1080p.NF.WEBRip.DDP5.1.x264-NTG

Download this torrent | Magnet Download
Health:
Seeds: 6,634
Leechers: 8,906
Completed: 33,878 
Last Checked: 07-12-2018 14:22:54
External Torrent
Update Stats



Images Host

Poster


iMDB
Original Title: Mowgli
Title: Mowgli: Legend of the Jungle
Year: 2018
Votes: 218
Rating: 7.7/10
Language: English
Tagline: Outcast. Survivor. Legend.
Director: Andy Serkis
Writing By: Callie Kloves,Rudyard Kipling,
Produced By: David Barron,Jonathan Cavendish,Steve Kloves,Nikki Penny,
Music: Nitin Sawhney
Cast:
Christian Bale as Bagheera
Cate Blanchett as Kaa
Benedict Cumberbatch as Shere Khan
Naomie Harris as Nisha
Andy Serkis as Baloo
Peter Mullan as Akela
Jack Reynor as Brother Wolf
Eddie Marsan as Vihaan
Tom Hollander as Tabaqui
Matthew Rhys as Lockwood
Trailers:
Official Trailer #2
Official Trailer


Watch-Free-HD     Download

Details
Name:Mowgli.Legend.of.the.Jungle.2018.1080p.NF.WEBRip.DDP5.1.x264-NTG
Description:
Video
ID : 1
Format : AVC
Format/Info : Advanced Video Codec
Format profile : [email protected]
Format settings : CABAC / 3 Ref Frames
Format settings, CABAC : Yes
Format settings, ReFrames : 3 frames
Codec ID : V_MPEG4/ISO/AVC
Duration : 1 h 44 min
Bit rate mode : Variable
Bit rate : 5 360 kb/s
Maximum bit rate : 8 040 kb/s
Width : 1 920 pixels
Height : 1 080 pixels
Display aspect ratio : 16:9
Frame rate mode : Constant
Frame rate : 23.976 (24000/1001) FPS
Color space : YUV
Chroma subsampling : 4:2:0
Bit depth : 8 bits
Scan type : Progressive
Bits/(Pixel*Frame) : 0.108
Stream size : 3.89 GiB (92%)
Writing library : x264 core 148 r2715 7e75228
Encoding settings : cabac=1 / ref=3 / deblock=1:0:0 / analyse=0x1:0x111 / me=umh / subme=10 / psy=1 / psy_rd=1.00:0.00 / mixed_ref=1 / me_range=24 / chroma_me=1 / trellis=2 / 8x8dct=0 / cqm=0 / deadzone=21,11 / fast_pskip=1 / chroma_qp_offset=-2 / threads=8 / lookahead_threads=1 / sliced_threads=0 / nr=0 / decimate=1 / interlaced=0 / bluray_compat=0 / stitchable=1 / constrained_intra=0 / bframes=2 / b_pyramid=0 / b_adapt=2 / b_bias=0 / direct=3 / weightb=1 / open_gop=0 / weightp=2 / keyint=48 / keyint_min=25 / scenecut=0 / intra_refresh=0 / rc_lookahead=48 / rc=2pass / mbtree=1 / bitrate=5360 / ratetol=1.0 / qcomp=0.50 / qpmin=6 / qpmax=51 / qpstep=4 / cplxblur=20.0 / qblur=0.5 / vbv_maxrate=8040 / vbv_bufsize=10720 / nal_hrd=vbr / filler=0 / ip_ratio=1.40 / aq=1:1.00
Default : Yes
Forced : No

Audio
ID : 2
Format : E-AC-3 JOC
Format/Info : Enhanced AC-3 with Joint Object Coding
Commercial name : Dolby Digital Plus with Dolby Atmos
Codec ID : A_EAC3
Duration : 1 h 44 min
Bit rate mode : Constant
Bit rate : 448 kb/s
Channel(s) : 6 channels
Channel layout : L R C LFE Ls Rs
Sampling rate : 48.0 kHz
Frame rate : 31.250 FPS (1536 SPF)
Compression mode : Lossy
Stream size : 336 MiB (8%)
Title : English
Language : English
Service kind : Complete Main
Default : Yes
Forced : No
Complexity index : 16
Number of dynamic objects : 15
Bed channel count : 1 channel
Bed channel configuration : LFE



 http://imagecurl.com/viewer.p...5943673389411093.png


 http://imagecurl.com/viewer.p...8057576861303079.png


 http://imagecurl.com/viewer.p...6346248.png[/center]
Category:Movies > WEB-HD
Lang:English  English
Total Size:4.22 GB
Info Hash:0cbff5e571ec1185be2fc094d04fe40f78fb79ba
Added By:Scene
Date Added:07-12-2018 10:40:01
Downloads:131

Ratings:Not Yet Rated (Log in to rate it)


Tracker:
http://tracker.trackerfix.com:80/announce


File List: 


Comments

No comments still posted

Top
Copyright 2018 DownloadHD -|- Page Generated In 0.055386 secs.
-|- RSS Feed -|- Feed Info